WK綜合論壇, WK综合论坛

查看:80 回復:3 發表於 前天 23:02
本主題由 212love 於 前天 12:33 刪除回復
累計簽到︰1992 天
連續簽到︰28 天
發表於 前天 08:48 | 顯示全部樓層 |閱讀模式
VIP精品區,資源無限好賺金任務區,輕松賺金幣
加入VIP,享受高級特權宣傳賺金又升級,超級棒

寶劍與權杖 The.Warrior.Queen.Of.Jhansi., 2019.[MKV / 6.78G] [複製鏈接]

影視分享
分類: 電影
題材: 劇情 
地區: 英國 
語言: 英语 
格式: MKV 
年份: 2019
資源: BT资源
1.jpg * U2 }% X, i# ^+ M/ j/ M6 d

' h# i# V) W& \, g. |- b$ m◎译  名 宝剑与权杖 / Swords and Scepters / Swords and Sceptres: The Rani of Jhansi
2 a& f4 L" I  j6 k◎片  名 The Warrior Queen of Jhansi) j/ o9 c" f' O% D1 G- a; T
◎年  代 2019
9 q, {+ p; T( J, u% z" e& O/ G◎产  地 英国3 X& `2 y/ w# t" t
◎类  别 剧情
: f) E" S! x/ P& G2 o◎语  言 英语) L( @) F* C( w, e3 {0 q
◎上映日期 2019-03-10(温哥华女性电影节)
0 U0 i9 V8 m, y8 D. g/ F* V1 R: F◎IMDb评分 3.5/10 from 245 users5 U! O. Q4 `7 d, u' A6 {
◎IMDb链接 https://www.imdb.com/title/tt6916348
8 N% k/ K: A. W+ @' C5 Z! I◎豆瓣评分 0/10 from 0 users- d) O& o" `$ Z& Q$ Q2 A  ]( G
◎豆瓣链接 https://movie.douban.com/subject/27191803/
" A$ w% B3 p: k! Y' {* ^4 u* _◎片  长 103分钟9 M7 f( L& J" X/ D
◎导  演 Swati Bhise4 q) F/ ^: s$ B, i: M
◎编  剧 Devika Bhise / Swati Bhise / Olivia Emden* D; z5 u4 p- Y2 o* Y( G' S
◎主  演 鲁伯特·艾弗雷特 Rupert Everett
# z( G; d# Z) Q6 x; j4 O3 P5 Y' c# B      德里克·雅各比 Derek Jacobi
" [# }, b# S; H$ C* Q9 r( s      乔迪·梅 Jodhi May
' V  ?* u6 m' }. X: _( U) j4 `      内森奈尔·帕克 Nathaniel Parker
; j5 q4 A6 G2 ^3 s6 i0 i      德维卡·贝斯 Devika Bhise
  [0 ]* x8 p3 h8 V      Ben Lamb& j, L/ Q) k( ~' e

# n4 N7 y( R2 C; [' w) T" I; K0 B% T1 B7 J
◎标  签 印度 | 英国 | 2019年上海国际电影节 | 历史 | DerekJacobi | 剧情 | 2019SIFF | 首选' n% x" W* W+ o/ P  w
/ C, ?6 I: l9 J- p5 _- s
◎简  介
% s% H# O, m8 H  `0 q  L! I
. c4 U" k$ t9 s) {0 n7 S, b  鲁伯特·艾弗雷特、德里克·雅各比加盟[宝剑与权杖](Swords and Scepters,暂译)。主演德维卡·贝斯、乔迪·梅、内森奈尔·帕克等。印度导演斯瓦蒂·贝斯执导,故事聚焦印度“詹西女王”拉克希米巴伊1857年反抗英国东印度公司的起义行动。艾弗雷特、雅各比分饰休·罗斯爵爷、帕默斯顿勋爵。8 F* Y2 L  W$ i4 }  Q
Video
9 }9 ]: w, \5 G" p" m  iID : 16 _! `0 @- `8 G2 j2 q
Format : AVC) q8 n' d( m' T" y3 O0 Z6 d
Format/Info : Advanced Video Codec5 x7 {2 \5 n+ ?  S* O
Format profile : [email protected]
" |& U. x8 g5 P2 c8 g0 ?Format settings : CABAC / 4 Ref Frames1 d- i: g( x& R- B5 `, ~
Format settings, CABAC : Yes
, j9 k( h5 X* r. j7 b4 b  X1 G' d; OFormat settings, Reference frames : 4 frames
) d* z/ Z, s/ e. y3 D  D. @Codec ID : V_MPEG4/ISO/AVC
# T6 Y6 Q' X. m; `; j8 @% vDuration : 1 h 42 min7 \. g$ v$ n" p( D, s
Bit rate mode : Constant
2 _& K% \; I! E  G% V0 I. {Bit rate : 8 813 kb/s1 O' @) p! B6 C# T% X3 M% t
Nominal bit rate : 10 000 kb/s/ g) t. n; G8 S& h
Width : 1 920 pixels
1 d. ?: r$ d% M% LHeight : 800 pixels
" m' I+ R, L; e- ~3 _- O, i0 B0 VDisplay aspect ratio : 2.40:1
7 F- y# w& [  k; p4 s# t; tFrame rate mode : Constant
$ {6 L' o2 G$ bFrame rate : 23.976 (24000/1001/189150) FPS+ Z) h+ t4 L. `, n1 o; V4 b
Color space : YUV- V. V9 j2 {/ y: l6 e$ i6 y% m
Chroma subsampling : 4:2:0
3 c# B1 y. D5 |! }( @- [Bit depth : 8 bits
  m6 ~; ?3 [: D) p  l2 NScan type : Progressive
6 I) L. K% q2 ~) m1 y% v2 e8 lBits/(Pixel*Frame) : 0.239
2 S0 X$ U( y' r% D# t% c' xStream size : 6.32 GiB (93%)
2 a9 y3 j$ L: M) n( H# kDefault : Yes) g+ J' e2 k5 X5 y
Forced : No
. K+ w$ y. o. s2 @  t2 XColor range : Limited
& b, t1 Z2 T" G0 P3 m( GColor primaries : BT.709$ H2 k$ `7 Y- u2 l7 j
Transfer characteristics : BT.709
3 q8 o- Y6 ~, K& Z: G' AMatrix coefficients : BT.709
! E- d6 S' y, D) E& a6 z9 F1 x
3 Y$ A/ `$ F6 f! oAudio5 V/ D' y+ T9 |+ Z% H
ID : 2/ F6 }, @+ P$ i* d
Format : E-AC-39 h7 _# A& t% F& h3 b4 w0 D
Format/Info : Enhanced AC-3
: E0 A" m8 Z# ?5 s% |# e* ACommercial name : Dolby Digital Plus* ^& C  r6 c2 f, D+ I
Codec ID : A_EAC3
4 }) B; U3 x0 x2 P  s( VDuration : 1 h 42 min
6 k5 e" v8 |0 jBit rate mode : Constant
& n9 N5 J; Z: ?- p$ L, c3 F- NBit rate : 640 kb/s
) V6 u4 |* w; i- SChannel(s) : 6 channels
8 m2 _: }( ^6 |  k# _7 @# xChannel layout : L R C LFE Ls Rs
9 K) k7 @% `3 j) _3 b7 i# LSampling rate : 48.0 kHz9 i8 f8 t* W/ j# ^5 _; B
Frame rate : 31.250 FPS (1536 SPF)
( s5 n5 s3 X- J) D2 CCompression mode : Lossy
+ B- O+ A% W8 D) h3 VStream size : 470 MiB (7%)
5 @$ X6 N9 k% _" n+ n  j$ ILanguage : English0 y. y2 \! R0 V6 v# s4 G. @0 Z# {
Service kind : Complete Main
1 ^1 d' U* |& h# N& W% B" bDefault : Yes
. V, Y2 g3 ~' Z) V8 k9 SForced : No1 ?$ q7 p4 i& P" e

/ l% R( f" c3 BText #18 Z9 [. e, G- E6 O' W2 p
ID : 3% ?/ ~# B9 l0 G% d0 f$ y
Format : UTF-84 {# _% }1 ^: Z; {) n
Codec ID : S_TEXT/UTF8% w5 ^5 a/ S" K- [$ j2 E9 s
Codec ID/Info : UTF-8 Plain Text/ V8 H  `4 u6 O- K' `+ B1 d
Duration : 1 h 35 min) w2 J' R5 U5 f# c! S# P
Bit rate : 46 b/s5 M$ k( M3 j9 b" x
Count of elements : 1040
3 p: R- X0 _' h5 `5 TStream size : 33.0 KiB (0%)
( o) ^5 r& }/ {! M; YLanguage : English3 Z' I- Q( Z7 w' D1 j4 A" p; {
Default : No& w7 d7 ~" ]* n0 m1 {
Forced : No
+ ]/ s% [8 U/ D: B$ g% L3 Z
# b3 H1 U. h% S' i0 E* SText #2: f, H2 j! W" q; W( B
ID : 4  f" B+ Q, v3 f% ]' D
Format : UTF-8# E& j9 H. S& S" @7 t3 ]! P7 G
Codec ID : S_TEXT/UTF8% {4 t$ |0 Q/ M, P" Z8 n, X
Codec ID/Info : UTF-8 Plain Text3 o  G: E3 K. \4 v8 R% D
Duration : 1 h 35 min, U, ~  W, q* j/ o/ b' v/ @. S
Bit rate : 53 b/s5 N2 D" U5 q. v- I
Count of elements : 1259
& Y% T( |+ o& `3 C0 oStream size : 37.4 KiB (0%)+ S8 d5 I  g$ f
Title : SDH+ f0 V& A& h' m: a1 t5 ?
Language : English5 h, k4 ^- \8 I
Default : No& m2 I- ~' X0 _" W$ I8 @& q
Forced : No

7 `8 H, @, B" J/ `9 H. s+ E6 y* {
" d' w3 i- h6 N" [) w9 B- D; C( {# _+ Q4 b- g; q

寶劍與權杖. MKV.torrent

34.46 KB, 下載次數: 8

累計簽到︰2 天
連續簽到︰1 天
發表於 前天 09:46 | 顯示全部樓層
VIP精品區,資源無限好賺金任務區,輕松賺金幣
加入VIP,享受高級特權宣傳賺金又升級,超級棒
ddddddddddddddddddddddddddddddddddddd
累計簽到︰1232 天
連續簽到︰21 天
發表於 前天 10:09 | 顯示全部樓層
感謝大大的辛勞分享!我會繼續在WK關注大大的文章!
累計簽到︰1 天
連續簽到︰1 天
發表於 前天 23:02 | 顯示全部樓層
Thank you for sharing.

回復樓主 親!! 早上好! 心底有WK、心情就會飛翔,心中要個希望、笑容就會清爽!

 分享同時學會感恩,一句感謝的話語,就是最大的支持!  歡迎交流討論
您需要登錄後才可以回帖 登錄 | 立即注册

本版積分規則

c重要聲明:本論壇是以即時上載言論的方式運作,WK論壇對所有言論的真實性、立場及版權等,不負任何法律責任。而一切言論只代表發佈者個人意見,並非本網站之立場,讀者及用戶務必自行判斷內容之真實性。 由於本論壇受到「即時上載言論」運作方式所規限,故不能完全監察所有言論,若讀者及用戶發現有內容出現「真實性、立場及版權」等問題,請聯絡我們:[email protected]論壇有權刪除任何言論(刪除前或不會作事先警告及通知)| SiteMap[網站地圖]

發表新帖 返回頂部